#TITLE:Hyper Star Energy;
#SUBTITLE:;
#ARTIST:D.Essex;
#TITLETRANSLIT:;
#SUBTITLETRANSLIT:;
#ARTISTTRANSLIT:;
#GENRE:;
#CREDIT:;
#BANNER:banner.png;
#BACKGROUND:;
#LYRICSPATH:;
#CDTITLE:cdtitle.png;
#MUSIC:hyper.mp3;
#OFFSET:0.563;
#SAMPLESTART:58.560;
#SAMPLELENGTH:12.000;
#SELECTABLE:YES;
#BPMS:0.000=154.500;
#STOPS:;
#DELAYS:;
#TIMESIGNATURES:0.000=4=4
;
#BGCHANGES:2.000=flipped.avi=1.000=0=0=1=====,
99999=-nosongbg-=1.000=0=0=0 // don't automatically add -songbackground-
;
#KEYSOUNDS:;
#ATTACKS:;
// cache tags:
#FIRSTBEAT:7.000;
#LASTBEAT:326.000;
#SONGFILENAME:/Songs/ParaPara/Hyper Star Energy/hyper.sm;
#HASMUSIC:1;
#HASBANNER:1;
#MUSICLENGTH:126.889;
// end cache tags

//---------------para-single - ----------------
#NOTES:
     para-single:
     :
     Beginner:
     3:
     0.317,0.385,0.441,0.363,0.000,180.000,56.000,46.000,0.000,0.000,0.000,0.000,-1.000,-1.000,0.317,0.385,0.441,0.363,0.000,180.000,56.000,46.000,0.000,0.000,0.000,0.000,-1.000,-1.000:
00000
00000
00000
00000
,
00000
00000
00000
10001
,
10001
00000
00000
10001
,
10001
00000
00000
00000
,
00000
00000
10001
00000
,
00000
00000
00000
10001
,
10001
00000
00000
10001
,
10001
00000
00000
00000
,
00000
00000
10001
00000
,
00000
00020
00030
00000
,
00000
02000
03000
00000
,
00000
00000
00000
00000
,
00000
00000
00001
00010
,
00000
00200
00300
00000
,
00000
00002
00003
00000
,
00000
00000
00000
00000
,
00000
00000
10000
01000
,
00000
00020
02000
00030
,
03000
02020
03030
01010
,
01010
00020
02000
00030
,
03000
02020
03030
01010
,
01010
00020
02000
00030
,
03000
02020
03030
01010
,
01010
00020
02000
00030
,
03000
02020
03030
01010
,
01010
01000
00010
00010
,
01000
01000
00010
00010
,
01000
00001
10000
00020
,
00030
10000
00001
00000
,
01000
00010
00000
00010
,
00000
01000
00000
01000
,
00000
00010
00010
01000
,
01000
00000
01010
00100
01010
00000
00000
00000
,
01010
01000
00010
00010
,
01000
01000
00010
00010
,
01000
00001
10000
00020
,
00030
10000
00001
00000
,
01000
00010
00000
00010
,
00000
01000
00000
01000
,
00000
00010
00010
01000
,
01000
00000
01010
00100
01010
00000
00000
00000
,
01010
00000
00000
10001
,
10001
00000
00000
10001
,
10001
00000
00000
00000
,
00000
00000
10001
00000
,
00000
00000
00000
10001
,
10001
00000
00000
10001
,
10001
00000
00000
00000
,
00000
00000
10001
00000
,
00000
00020
00030
00000
,
00000
02000
03000
00000
,
00000
00000
00000
00000
,
00000
00000
00001
00010
,
00000
00200
00300
00000
,
00000
00002
00003
00000
,
00000
00000
00000
00000
,
00000
00000
10000
01000
,
00000
00020
02000
00030
,
03000
02020
03030
01010
,
01010
00020
02000
00030
,
03000
02020
03030
01010
,
01010
00020
02000
00030
,
03000
02020
03030
01010
,
01010
00020
02000
00030
,
03000
02020
03030
01010
,
01010
01000
00010
00010
,
01000
01000
00010
00010
,
01000
00001
10000
00020
,
00030
10000
00001
00000
,
01000
00010
00000
00010
,
00000
01000
00000
01000
,
00000
00010
00010
01000
,
01000
00000
01010
00100
01010
00000
00000
00000
,
01010
01000
00010
00010
,
01000
01000
00010
00010
,
01000
00001
10000
00020
,
00030
10000
00001
00000
,
01000
00010
00000
00010
,
00000
01000
00000
01000
,
00000
00010
00010
01000
,
01000
00000
01010
00100
01010
00000
00000
00000
,
02020
00000
03030
00000
;
